file or any other file from Hollywood Videos category. Direct download via HTTP available as well.

L'enfant d'eau aka Water Child (1995) Torrent.



DOWNLOAD "L'enfant d'eau aka Water Child (1995)" UNLIMITED IN A SPEED OF 1000 TO 14 KBPS GRACE TEST DAYS FREE OFFERED BY USENET.NL!


Download Links
L'enfant d'eau aka Water Child (1995)


Download Links:
http://akas.imdb.com/title/tt0112961

Download Links:
General 
Format : AVI 
Format/Info : Audio Video Interleave 
File size : 1.38 GiB 
Duration : 1h 45mn 
Overall bit rate : 1 866 Kbps 


Video 
ID : 0 
Format : MPEG-4 Visual 
Format settings, BVOP : Yes 
Format settings, QPel : No 
Format settings, GMC : No warppoints 
Format settings, Matrix : Default (H.263) 
Muxing mode : Packed bitstream 
Codec ID : DX50 
Codec ID/Hint : DivX 5 
Duration : 1h 45mn 
Bit rate : 1 726 Kbps 
Width : 640 pixels 
Height : 480 pixels 
Display aspect ratio : 4:3 
Frame rate : 29.970 fps 
Resolution : 24 bits 
Colorimetry : 4:2:0 
Scan type : Progressive 
Bits/(Pixel*Frame) : 0.188 
Stream size : 1.28 GiB (93%) 
Writing library : DivX 6.8.5 (UTC 2009-08-20) 

Audio 
ID : 1 
Format : MPEG Audio 
Format version : Version 1 
Format profile : Layer 3 
Codec ID : 55 
Codec ID/Hint : MP3 
Duration : 1h 45mn 
Bit rate mode : Constant 
Bit rate : 128 Kbps 
Channel(s) : 2 channels 
Sampling rate : 48.0 KHz 
Resolution : 16 bits 
Stream size : 96.8 MiB (7%) 
Alignment : Aligned on interleaves 
Interleave, duration : 33 ms (1.00 video fram










Download Links:
http://www.filesonic.com/file/219557132/Lenfantdeau.avi